Why.him.2016.hdcam.x264.aac-mvgee.torrent

Recommended FREE Download, Click Here

To start this download, you need a free bitTorrent client like µTorrent

Informations

Bookmark this torrent
Seeds119
Peers22
Size587.52 MB
Age1 week ago
DateSaturday 07 January 2017
Comments0
CategoryMovies > Comedy > verified Verified
Hash502a9d216e372916364eed0218b65122948c17a8
Reported Fake (0) Password (0) Bad quality (0) Virus (0) Offensive (0) Spam (0) Real Torrent (0)
Bookmark

Description

Why.Him.2016.HDCAM.X264.AAC-MVGEE

http://www.imdb.com/title/tt4501244/

Over the holidays, Ned (Bryan Cranston), an overprotective but loving dad and his family visit his daughter at Stanford, where he meets his biggest nightmare: her well-meaning but socially awkward Silicon Valley billionaire boyfriend, Laird (James Franco). The rivalry develops,and Ned's panic level goes through the roof when he finds himself lost in this glamorous high-tech world and learns that Laird is about to pop the question.

Year: 2016
Genres: Comedy
Director: John Hamburg
Writers: Jonah Hill (story), John Hamburg (story)
Stars: Zoey Deutch, James Franco, Tangie Ambrose
MPA Rating: R
Runtime: 1h 51min
Rating: 6.6

[img]http://i.imgur.com/VoTTjkw.jpg[/img]
[img]https://extraimage.net/images/2017/01/07/1f73594cf1925767fd2b24c5c6ac39d8.png[/img]
[img]https://extraimage.net/images/2017/01/07/1ad8aede49732dc5381a69d382f4bd3a.png[/img]
[img]https://extraimage.net/images/2017/01/07/51602307f1cd9b5b9f4adcba48c3a075.png[/img]
[img]https://extraimage.net/images/2017/01/07/771e68cfe7cfc5e9a98b18d6cb6325b9.png[/img]

Duration: 01:47:04.69, start: 0.000333, bitrate: 767 kb/s
Stream #0:0(und): Video: h264 (Main) (avc1 / 0x31637661), yuv420p, 720x376 [SAR 1:1 DAR 90:47], 629 kb/s, 30 fps, 30 tbr, 15360 tbn, 60 tbc
Stream #0:1(und): Audio: aac (LC) (mp4a / 0x6134706D), 48000 Hz, stereo, fltp, 128 kb/s

Comments

0 Comments


Sign in | Create a new account
  

Files

Torrent nameSize
video Why.Him.2016.HDCAM.X264.AAC-MVGEE.mp4587.52 MB

Trackers

TrackerSeedsPeers
udp://tracker.ilibr.org:6969/announce 1 week ago00
udp://eddie4.nl:6969/announce 1 week ago00
udp://tracker.leechers-paradise.org:6969/announce 1 week ago00
udp://ipv4.tracker.harry.lu:80/announce 1 week ago00
udp://p4p.arenabg.com:1337/announce 1 week ago00
udp://p4p.arenabg.ch:1337/announce 1 week ago00
udp://9.rarbg.com:2800/announce 1 week ago00
udp://explodie.org:6969/announce 1 week ago00
udp://9.rarbg.me:2800/announce 1 week ago00
udp://9.rarbg.to:2720/announce 1 week ago00
udp://tracker.opentrackr.org:1337/announce 1 week ago00
udp://ipv4.tracker.harry.lu:80/announce 1 week ago00
udp://shadowshq.yi.org:6969/announce 1 week ago00
udp://tracker.piratepublic.com:1337/announce 1 week ago00
udp://tracker.coppersurfer.tk:6969/announce 1 week ago00
udp://tracker.ilibr.org:80/announce 1 week ago00
udp://tracker.zer0day.to:1337/announce 1 week ago00
udp://tracker.coppersurfer.tk:80/announce 1 week ago00
udp://tracker.openbittorrent.com:80/announce 1 week ago00

Share this torrent